Listen to bootlegs of the show and Metallica - sorry, The Lemmys - stay faithful to the tracks. com) which has 1,690+ Metallica bootlegs posted by a fellow member. Search for: METALLICA 1984. Browse the entire Metallica music catalog. Free Shipping by Amazon E Metallica Master of Puppets Heavy Metal Rock Music Poster 24 x 36 inches (24X36 UNFRAMED Poster) 4. 09/25/1992 Stone Cold Crazy Metallica Los Angeles CA 02/13/1992. Would you like to make this site your homepage? It's fast and easy. The Ecstasy of Gold. Download or stream your favorite Metallica live concert recordings. Metallica have been uploading past shows on YouTube the past few weeks for Metallica Mondays. #N#All 0-9 A B C D E F G H I J K L M N O P Q R S T U V W X Y Z. FAN CLUB/BOOTLEG , Black, Death, Thrash, Doom, Heavy Metal, grind, crust, CDs, Vinyl, Shirts, Patches, DVDs, Tapes, Cassettes, MP3, great prices, fast shipping. 28 Corbett Center Ballroom, Las Cruces, NM. As far as I know, bootlegs are not copywritten and I have no problem at all sharing bootlegs on this site. net subscription; start your. Metallica Guide to Demo`s on Bootlegs & Official; back to the main page. 00 Mb 7:46 4. 5:32 You Have Been Loved 6. Bootlegs, Soundboard, Metal, Punk, Stoner, Industrial, Gothic. Metallica Bootleg. 034 • Series: Live & Alive • Format: CD Unofficial Release • Country: Germany • Genre: Rock • Style: Heavy Metal. Excellent and VeryGood Audience Recordings :: Silver CDs :: Lossless FLAC. Contains material from the early albums, up to and including 'The Black Album'. World of FLAC Bootlegs zondag 26 november 2017. Mustane / Camshot (C-) 49:10 1 DVD 1986 Long Island , NY. Enter Sandman; For Whom The Bell Tolls; Battery; Motorbreath; Fight Fire With Fire; Die Die My Darling; Stone Cold Crazy; Master Of Puppets; One; Nothing Else Matters; Sad But True. 3 south of heaven. Since 2004, Metallica began recording all the shows, and began to sell on site LiveMetallica in MP3 and FLAC. 18th (Bootleg). 0 % Test CRC BA7122D4 Copy CRC BA7122D4 Copy OK No errors occurred AccurateRip summary Track 1 not present in database Track 2 not present in database Track 3 not present in database Track 4 not present in database. 2 [Germany Bootleg] 1992 - Metallica - Creeping Death, Live In USA '92 Part 1 [Malaysia Bootleg] 1992 - Metallica - Kill 'Em All [Canada] 1992 - Metallica - L. Since I don't have much time to publish all my Metallica bootlegs, here I have prepared a list of bootlegs, which I have and I will continue to add information to the web, so that such is the explanation. The Song remains The Same. There are also LP bootlegs, DVD bootlegs and some official items. Metallica's French unique show is now available. Tracklisting: Disc 1 01. The Metallica Vinyl Bootlegs Index • HOME • BOOTS • PIRATES • FLEXI DISCS • NEWS • TOP 100 • GALLERY • LINKS • CONTACT • GUESTBOOK • TRADE. 5:31 Fast Love 3. A B O U T M E. There are currently 122 items for Metallica in the database 104 of these are bootlegs. Auteur: ace 21 avril 2016 0 Commentaires. Directed by Wayne Isham. Or leave me a comment on my you tube page. IJsselhallen Zwolle Netherlands: 01 The Ecstasy Of Gold 02 Hit The Lights 03 The Four Horsemen 04 Jump In The Fire. An unofficial remix that incorporates the complete, finalized original song. Metallica at Chase Center, San Francisco, CA, USA. de Website Analysis (Review) Metalliguide. 22nd - Dec. Otherwise, please PM me. 4 – Killing Time (2:37) – “Sweet. 0: 9: Video Bootlegs : Woodstock Festival 1999 - 40 Concerts (SBD) klasw. Slayer - praying to satan. Label: Bootleg Audio Master Series. cover included mp3/320k/65mb DOWNLOAD HERE: RAPIDSHARE ~OR~ MEGAUPLOAD password: bootlegtunzworld. But what are some good websites that sell bootleg DVDs? Thanks in advance. Complete information of Metallica's bootleg Metal Masters, by Insect Records label. 11 - Lou Reed & Metallica - Live In 1 Live Radio, Cologne, Germany 1DVD 2011. There are also LP bootlegs, DVD bootlegs and some official items. The band's fast tempos, instrumentals, and aggressive musicianship made them one of the founding "big four. More Metallica available on the site (BOIL004)-Bootleg-2CD-FLAC. Metallica CDs Overview Biography Songs Similar Artists Books Vinyl CDs. Metallica Bootlegs Metallica Night Of The Rivvit Heads various days during 1982 in CA Metallica One Last Visit Metallica's Garage on LA during 1982 Metallica BAY Area Thrashers 1982 Metallica San Fransico 11/29/1982. NOTE: Lower Than Atlantis are an English rock band, formed in 2007 and based in Watford, Hertfordshire. The ink mishaps make it obvious that counterfeiter #2 used. Dec 31, 2009. Metallica-Unplugged (cdr bootleg) A Track 1 was recorded at Virgin FM Studios, Longon 11/97 Tracks 2-9 KSJO Studios, London 12/97 Track 10. Old Metal Bootlegs. With James Hetfield, Kirk Hammett, Lars Ulrich, Robert Trujillo. 1-16 of 241 results for "metallica posters" Skip to main search results E Metallica Master of Puppets Heavy Metal Rock Music Poster 24 x 36 inches (24X36 UNFRAMED. For Eric Burdon & Co. Herculean Sky - Cormac O Caoimh - A New Season For Love the quality is very poor. This item will ship to United States, but the seller has not specified shipping options. Since I don't have much time to publish all my Metallica bootlegs, here I have prepared a list of bootlegs, which I have and I will continue to add information to the web, so that such is the explanation. Official Metallica Merchandise. I have used LiveMetallica, and they have a couple free bootlegs. All Demos Albums Live Compilations Video Single Bootlegs Tributes Splits. If you want to see a Metallica Bootleg collection with all the wonderful art, here is one about 800 items strong http. Dec 31, 2009. Metallica and the San Francisco Symphony perform a live concert together at Chase Center in San Francisco. Metallica Concert Setlists & Tour Dates. The concerts are mainly high quality Soundboard/FM Broadcast shows, but some are recorded by audience (always with a good quality). Vintage Metallica bootleg T-shirt. Metallica 1992/06/10 Phoenix, AZ USA America West Arena AUDIENCE [2 DVD`S] Metallica 1997/02/04 St. Metalliguide. com) which has 1,690+ Metallica bootlegs posted by a fellow member. Metallica: 35 Bootlegs: Members of Metallica: Robert Trujillo, Jason Newsted, Cliff Burton †, Ron McGovney, Kirk Hammett, Dave Mustaine, Lars Ulrich and James Hetfield. Date : 03/02/1989 Lieu : Erwin Events Center, Austin, Texas Label : Red Line Support : 1 cd Durée : 77:33 mn Source : Soundboard Qualité sonore : 9/10. 22 Mb 7:13 5. Opening night Guns/Metallica 07/17/1992 Metallica East Rutherford NJ 07/18/1992 Metallica London U. Complete information of Metallica's bootleg Metal Masters, by Insect Records label. Thursday, March 18, 2010. 00 the cheapest. That's not to say Newsted isn't a great bass player, or that having his basslines audible doesn't, in places, make the songs sound better (notably the ending of the title track and, surprise!, the ten minute instrumental. 28 Corbett Center Ballroom, Las Cruces, NM. With Edgar Barradas, Kirk Hammett, James Hetfield, Metallica. Necrophiliac 5. Rewind • Replay • Rebound. Metallica : New video-clip : Master Of Puppets and Whiskey In the Jar (Vienna, Austria) Galeries photo. Kill 'Em All [Australia Bonus CD] $ 13. 1987 * ; The 1988/89 US-tour vol. Bay Area heavy-metal kings Metallica have sent cease-and-desist letters to a number of distributors in an attempt to halt the release of an early bootleg recording of their music entitled Bay Area. Over The Hills And Far Away. 10,278: 41: Video Cover Artwork Here you can find Metallica bootleg cover artwork for Blu-ray Discs, DVDs, VCDs, and even VHS cases. BootlegZone : Metallica A huge database of Beatles (and other artists) bootlegs (incl. Metallica is an American heavy metal band. 7 notes Oct 16th, 2018. Get access to over 600 exclusive live recordings with a nugs. The Biggest Metallica Bootleg Forum The Biggest Metallica Bootleg Forum. Snog Remote Control CD. Download Metallica Fast and for Free. A B O U T M E. metalliguide. Not On Label (Metallica) Profile: This pseudo-label is a holding area for all unofficial releases and bootlegs containing music by Metallica where no proper or other label/company is discernible. Metallica Bootlegs. ---===DEMOS===---Metal Massacre Demo Power Metal Demo No Life Till Leather KUSF/Megaforce Demos Ride The Lightning Demos Master Of Puppets demos And Justice For All demos. Left to right: Kirk Hammett, James Hetfield, Lars Ulrich, and Cliff Burton. Volbeat Store US. CD Bootleg Limited Edition CD. Released in 2008. Vintage Metallica bootleg T-shirt. 1988 04/06/1988 Miami, FL, Orange Bowl(1DISC) (AUD) (NTSC) (2nd) (A , B+) 26/06/1988 East Rutherford, NJ, Giants Stadium (1DISC) (AUD) (NTSC) (A- , B). Metallica, Motorhead headline Goldmine& May metal issue Metal God Rob Halford looks back fondly on his band's 1984 release, "Defenders of the Faith. Rejoignez la Whipping Family ! Liste Bootlegs - Box set cd - Whipping Dancerz - MetallicA French Local Chapter #232. A got this one out of pure curiosity, yes I like Dream Theater and the old Metallica but this was one release I was not expecting. Moth Into Flame. Enter Sandman 2. Is a true bootleg, the paper insert is a color photo copy and the disc says "TDK" on the back!!!. 13 - Live In SBC Park, San Francisco 2005. Metallica - "Enter Sandman," The Black Album. Nashville, TN, USA. Threads Tagged with metallica : Thread / Thread Starter: Last Post: Replies: Views: Video Bootlegs : Woodstock Festival 1999 - 40 Concerts (SBD) klasw. Get access to over 600 exclusive live recordings with a nugs. By signing up you agree to receive news and offers from Metallica EU (Probity). The company was from Canada. Watch Metallica Live at House of Vans Check out tonight’s #MetallicaMondays show, “Live at House of Vans - November 18, 2016,” to relive the hot, sweaty club show, live from London. Top Artists Adjust to New World of YouTube Bootlegs Metallica, Justin Bieber and more look the other way as full concert clips show up online. Seven go-to sites for music bootlegs Check out these sites for the best music bootlegs. Ce site se veut être une sorte d'encyclopédie des bootlegs existant sur Metallica. The Call of Ktulu. Rewind • Replay • Rebound. Conciertos de Metallica para que se los descarguen, escuchen y disfruten Administradores: Mauro -SinCity- y Sebas. This is a bootleg of the FanCan #1 CD. With James Hetfield, Kirk Hammett, Lars Ulrich, Robert Trujillo. Metallica Bootlegs vote on which one i should upload next. 5:31 Fast Love 3. That's all I can give. BootBlogger - Lou Reed Bootlegs Lou Reed - Metro Theatre, Sydney, Australia - 19. Hello fellow Metallica Collectors! This site is a private area showing my own Metallica Collection. 1983 San Francisco , Ca. Metallica was formed by Lars Ulrich and James Hetfield in the fall of 1981. Tracklist: 1. Metallica Audio Bootlegs TAKE NOTE::: Here is my collection of metallica bootlegs, note some of these are not complete so if you have any and would like to trade then feel free to contact me Take Notice I Only Trade FLAC Or Lossless Shows And Im Not Looking For Anything In MP3 Format. Released in 2008. 70 Comments · Full Story. Users who like Metallica - Enter Sandman (Joel Fletcher & Reece Low Bootleg)FREE DL; Users who reposted Metallica - Enter Sandman (Joel Fletcher & Reece Low Bootleg)FREE DL. Blu-Ray trades of Iron Maiden, Arch Enemy, Iced Earth, King Diamond and Nightwish. Nashville, TN, USA. Most of my items are factory pressed CD bootlegs (>850). Nobody's Fault But Mine. 2019-02-11T20:55:52Z Buy Metallica - Enter Sandman (Joel Fletcher & Reece Low Bootleg)FREE DL. Sunday, January 22, 2012. dd/mm/yyyy City, Venue, (# of Discs) (Source) (Video Format) (Gen) (Video Quality. Studio Singles Live Soundtracks Films Benefits Bootlegs Other. This site is a private area showing my own Metallica Collection. 0: 9: Video Bootlegs : Woodstock Festival 1999 - 40 Concerts (SBD) klasw. Even songs from weaker lps like LOAD (Until it Sleeps) and ST. download, bajar, descargar, baixar, Rock am Ring 2018, live, bootlegs, dvd, hdtv, rock in rio, Lollapalooza, berlin, metallica, iron maiden. 4 notes Oct 11th, 2018. THE BLACK FUEL. Metallica first played in Gothenburg on February 13, 1987. For more details see the privacy policy. A Year And A Half In The Life Of Metallica Pts. SLAYER Bootlegs samedi 19 octobre 2019. METALLICA VIDEO BOOTLEGS 1994-Aug-13 Saugerties,NY(Jarror/101 Min) 2006-Jun-03 Rock Am Ring(Pro Shot/RockPalast German TV/135 Min). You can unsubscribe at any time. Download or stream your favorite Metallica live concert recordings. Originally, this was to be the first of two shows, the 15th and 16th, but due to both shows selling out so fast, a third show was added on the 14th. All in all you will have entrance to more than 1100 items!. Bootleg Discography Price Guide Recently Listed Email Alerts. The Forum - Inglewood, CA - June 21st - Out On The Tiles. 73 Mb 7:44 6. Since 2004, Metallica began recording all the shows, and began to sell on site LiveMetallica in MP3 and FLAC. Ce Bootleg date de 1988 pour la tournée route 88. It is currently Mon Mar 02, 2020 7:06 am. Please read the notes about this discography before sending me e-mail asking all sorts of questions. metbootlegs. This section does not include alternative versions of songs and live or rehearsal jams, but complete songs. Ce site se veut être une sorte d'encyclopédie des bootlegs existant sur Metallica. MetCoverArt. Bootlegs, Soundboard, Metal, Punk, Stoner, Industrial, Gothic. Not On Label (Metallica) Profile: This pseudo-label is a holding area for all unofficial releases and bootlegs containing music by Metallica where no proper or other label/company is discernible. Nashville, TN, USA. You can find similar websites and websites using the same design template. 5:32 You Have Been Loved 6. com) which has 1,690+ Metallica bootlegs posted by a fellow member. This was soon discovered by Metallica and all copies. Blackened 02. Metallica have been uploading past shows on YouTube the past few weeks for Metallica Mondays. Here you will find the live shows I have collected from bands like Black Sabbath, Ozzy Osbourne, Led Zeppelin, Pink Floyd, The Doors, Kiss, Van Halen and tons more. 5:32 You Have Been Loved 6. Metallica was formed by Lars Ulrich and James Hetfield in the fall of 1981. A Year And A Half In The Life Of Metallica Pts. com)积极探索资本运营模式,以各种方式加快发展对外合作,因为亚搏体育网站经常会推出一些十分有趣的挑战活动,亚搏体育网站为您提供一个稳定安全的娱乐场所,是有很多的原创性大。. Re: Metallica- The Bootleg Thread AtariLegend wrote: These bootlegs are allowed to be shared, if there's any you want that aren't already here or expired, then just ask politely and they may be re-upped. com) which has 1,690+ Metallica bootlegs posted by a fellow member. The Rover Intro / Sick Again. Iron Maiden Audio Bootlegs. Metallica Bootlegs! Here is my list of my Metallica bootlegs Last updated: 10-01-2005. 15 - Den Bosch, NTH - aud Morbid Angel 2004. Ride the Lightning Album - 1984. Hosted on IP address 178. Conciertos de Metallica para que se los descarguen, escuchen y disfruten Administradores: Mauro -SinCity- y Sebas. Directed by Wayne Isham. Enter Sandman 2. Directed by Joe Berlinger, Bruce Sinofsky. Thursday, March 18, 2010. Complete information of Metallica's bootleg Metal Masters, by Insect Records label. Metallica's French unique show is now available. Ulrich (who originally went to the US to play tennis) had, during that summer, met Brian Slagel of Metal Blade Records and had secured an appearance on an upcoming compilation called Metal Massacre but had no band. The band was formed in 1981 in Los Angeles by vocalist/guitarist James Hetfield and drummer Lars Ulrich and has been based in San Francisco for most of its career. WELCOME Last Update 2020/04/27. No birthdays today. Kill 'Em All [Australia Bonus CD] $ 13. 00 Mb 7:46 4. Download song: Records Metallica - Nothing Else Matters. 04-29-2020. Mediafire links to black, thrash and death metal bootlegs and demos. BootLeg Betty | Bette Midler. 25 - Live In Harry O's, Park City,UT. Last visit was: Thu May 07, 2020 5:02 am. Black Vinyl With Green `Stoned. Released in 2008. Download the Metallica The Sandman Cometh The Broadcast Anthology [1983 1996] bootleg 6CD-FLAC Torrent for Free with TorrentFunk. [Edited to remove link. It was this demo that helped to fuel bands like Anthrax and even Slayer to move out of the Maiden / Priest style of metal and start pursuing speed. 99 $ USD 15. Download or stream your favorite Metallica live concert recordings. I've listened/watched the following Metallica bootlegs in 2009. Save for. I'm a collector from New Zealand. This was soon discovered by Metallica and all copies. 0 % Test CRC BA7122D4 Copy CRC BA7122D4 Copy OK No errors occurred AccurateRip summary Track 1 not present in database Track 2 not present in database Track 3 not present in database Track 4 not present in database. com: https://njersy. Date : 03/02/1989 Lieu : Erwin Events Center, Austin, Texas Label : Red Line Support : 1 cd Durée : 77:33 mn Source : Soundboard Qualité sonore : 9/10. Metallica bootlegs metallica bootlegs rare reallystoned1420. Metallica Bootlegs Code. Since I don't have much time to publish all my Metallica bootlegs, here I have prepared a list of bootlegs, which I have and I will continue to add information to the web, so that such is the explanation. Re: Metallica- The Bootleg Thread AtariLegend wrote: These bootlegs are allowed to be shared, if there's any you want that aren't already here or expired, then just ask politely and they may be re-upped. Alvarito Ver todo mi perfil. For Whom the Bell Tolls. Hosted on IP address 178. Kill'Em All Hit the Lights, The Four Horsemen, Motorbreath, Jump in the Fire, (Anesthesia) Pulling Teeth, Whiplash, Phantom Lord, No Remorse, Seek& Destroy, Metal Militia. im the mod here and it has many awsome shows and it is growing. For Whom the Bell Tolls. Metallica's French unique show is now available. Hosted on IP address 178. Creeping Death 11. The Rover Intro / Sick Again. The Unforgiven 10. 07 - Live In The Fillmore, San Francisco, CA 2DVD. 70 Comments · Full Story. BootBlogger - Lou Reed Bootlegs Lou Reed - Metro Theatre, Sydney, Australia - 19. Very Good Audience Recording -> Bootleg Silver CD :: CBR 320 kbps. The Bootleg Series by Heaven’s Door, $499, available at ReserveBar ReserveBar also offers an impressive selection of unique and hard-to-find spirits, like Metallica’s BLACKENED Whiskey,. This particuler Metallica bootleg, has many rare elements such as: a classic Cliff Burton bass solo which I feel is very solid and is very similar to the 83 show that you see on "Cliff em all. Genres: Thrash Metal, Heavy Metal. You suck! OzBoots: Live and Rare recordings. Click to Watch Video. Metallica Guide to Demo`s on Bootlegs & Official; back to the main page. An unofficial remix that incorporates the complete, finalized original song. 2 [Germany Bootleg] 1992 - Metallica - Creeping Death, Live In USA '92 Part 1 [Malaysia Bootleg] 1992 - Metallica - Kill 'Em All [Canada] 1992 - Metallica - L. de has 852 daily visitors and has the potential to earn up to 102 USD per month by showing ads. Metallica Bootlegs! Here is my list of my Metallica bootlegs Last updated: 10-01-2005. Anger * Metallica River side Studios ( bootleg ) Metallica S & M ( doble ) * Metallica Cliff em all * Metallica Rock In Rio Lisboa 04-06-2004 ( Bootleg ) * Metallica Reading Festival 1997 ( Bootleg ) * Metallica Live Covers ( Bootleg ) * Metallica Video Collection Metallica Live Shit : Binge & burge. 09 L'Amours, Brooklyn, NY - Dave's Last Show 1983. Metal Up Your Ass is one of the very first Metallica bootlegs to ever surface (the absolute first one was Frankfurt’84) this one is released by an Italian label called Headbangers Records Inc back in 1985. Ride The Lightning 06. I have been collecting bootlegs and live shows for over 20 years. CD/DVD DISCOGRAPHY. 00 Mb 7:46 4. The 225 best bootlegs available via download, 2015-19 5 years - 130 different artists The posts #1 to #100 were mostly made from downloads prior to 2015. So go through my list and see if there is anything you want to trade for. View credits, reviews, tracks and shop for the CD release of Live USA on Discogs. By signing up you agree to receive news and offers from Metallica EU (Probity). The Biggest Metallica Bootleg Forum The Biggest Metallica Bootleg Forum. Moth Into Flame. Set List 01. Just google this : "Metallica Arras torrent" This is a Flac soundboard, the sound is amazing ! Have fun. Metallica Concert Setlists & Tour Dates. Threads Tagged with metallica : Thread / Thread Starter: Last Post: Replies: Views: Video Bootlegs : Woodstock Festival 1999 - 40 Concerts (SBD) klasw. Metallica Bootlegs vote on which one i should upload next. Bueno para celebrar la venida de Metallica a Mexico por tercera vez dejare unos Bootlegs los cuales considero como Los Mejores Metallica Early Days (Dave Mustaine). condition vg++. 00 the cheapest. This particuler Metallica bootleg, has many rare elements such as: a classic Cliff Burton bass solo which I feel is very solid and is very similar to the 83 show that you see on "Cliff em all. I'm a collector from New Zealand. a: los angeles: 02/13/92: 85/100: riding the black: fresno, usa: 02/15/92: 95/100: wherever we may roam tour '92: reno, usa: 02/16/92: 95/100: totally destroy canada: hamilton, canada 04/14/92: 95/100: all hell breaks loose: jackson, ms, usa: 06/16/92: 95/100: red diamonds london: 10/24/92: 95/100 wembley arena, 2nd night. With James Hetfield, Kirk Hammett, Lars Ulrich, Robert Trujillo. 0: 9: Video Bootlegs : Woodstock Festival 1999 - 40 Concerts (SBD) klasw. wav Peak level 100. external links found around the net. 00 the cheapest. 10: 4,000: Lossy Audio Bootlegs : Metallica - Live. metallica takes l. Enter Sandman 2. Metallica Bootlegs 1983 METALLICA March 5th 1983 The Stone, San Francisco, California, USA The First Metallica Show With Cliff Burton On Bass!!! 192kbps Audience recording (Very Good-) Covers Included Setlist: 01-The Mechanix. Dec 31, 2009. Sign up for our Mailing List here. Metallica: Load: 2xPicture Disc Lp: 1996 "Vertigo" 532 618-1 "Argentina" "Argentina", Bootleg Double Picture Disc Set. 04-29-2020 01:02 PM by Clammyboy. 22 Mb 7:13 5. 5:09 Everything She Wants 7. I'm a collector from New Zealand. I mostly went after bootleg CDs, but also have official / boot vinyl, CDS, tour books, tshirts, flags and misc. When compared with #1 we see the colors and details aren't accurate. As long as they aren't from "Live Metallica" or other official sources, because people often confuse a recording from LM with a bootleg. Well, I finally have enough live shows from Metallica to give them their own page now. Cover artwork, CD art, backplates, tracklistings, and images of assorted posters and memorabilia for bootleg live albums. Tracklist: 1. 4 notes Oct 11th, 2018. Bay Area heavy-metal kings Metallica have sent cease-and-desist letters to a number of distributors in an attempt to halt the release of an early bootleg recording of their music entitled Bay Area. 1992 - Black Album Tour Europe Oct. So what are some good bootleg DVD websites? My dad bought Becker all the complete seasons before it ame out on DVD for 50. You may have to register before you can post: click the register link above to proceed. Enterprise Center. Metallica was last in Gothenburg on May 30, 2004. Filename E:\bki71\Metallica\Bootlegs\Metallica - Monsters Of Rock - Donington 17-08-91. The entire Live Metallica concert catalog is now also available for unlimited on-demand streaming on nugs. Metallica 's twelve tracks may be sorted into three categories: angsty arena anthems, furrowed-brow ballads, and tamer, hybridized takes on Metallica's famous pit-starters. The Louder Than Life festival in Louisville, Kentucky scheduled to be held in September will not be taking place this year. 18th (Bootleg). 6:35 Freedom 2. Face the Promise by Bob Seger (CD, Sep-2006, Capitol/EMI Records) Frehley's Comet by Ace Frehley (CD, Jul-1987, Megaforce) Powerman 5000 - Transform by Precision Series. It was the last date on the Master of Puppets tour. on February, 9th 2020. METALLICA Hero Of The Day (1996 UK wide-centred injection moulded 7" vinyl single that was released as a jukebox 45 only and plays plays the same track both sides, housed in a plain die-cut paper sleeve. Download / Stream. 31 Mb 5:53 3. 5:09 Everything She Wants. Metallica bootlegs metallica bootlegs rare reallystoned1420. Is a true bootleg, the paper insert is a color photo copy and the disc says "TDK" on the back!!! The music qualityu is quite good but man, James Labrie needs to now when to stop trying to imitate somebody's else. a: los angeles: 02/13/92: 85/100: riding the black: fresno, usa: 02/15/92: 95/100: wherever we may roam tour '92: reno, usa: 02/16/92: 95/100: totally destroy canada: hamilton, canada 04/14/92: 95/100: all hell breaks loose: jackson, ms, usa: 06/16/92: 95/100: red diamonds london: 10/24/92: 95/100 wembley arena, 2nd night. Metallica: ReLoad: Picture. Bob Dylan In 1966 There Was… (Trade Mark of Quality, 1970, LP) Even in a list of ten, two Dylan bootlegs deserve entries. This particuler Metallica bootleg, has many rare elements such as: a classic Cliff Burton bass solo which I feel is very solid and is very similar to the 83 show that you see on "Cliff em all. Metallica was last in Gothenburg on May 30, 2004. Metallica The Thing That Should Not Be Live 1993 Basel Switzerland at the National Bowl june 20 1993 Creeping Death Harvester of Sorrow Welcome Home (Sanitarium). Metallica So you want to expand your bootleg collection ? Why don't you become a Bootlegzone Member? It's FREE! There are currently 122 items for Metallica in the database 104 of these are bootlegs. It's Raining Again 06. Creeping Death 3. CD/DVD DISCOGRAPHY. 42786 of these are bootlegs. (Ref AP-4001) Recorded Live at , Stockholm, Sweden - September 26, 1986. Bootlegs, Soundboard, Metal, Punk, Stoner, Industrial, Gothic. S&M2 Night 1 Bootleg Event - Tee. On same DVD as Metallica 1997. For more details see the privacy policy. Fans visiting the website find it to be a useful resource for information about Metallica bootlegs including track listings, source information, and screenshots for video bootlegs. 4 - Killing Time (2:37) - "Sweet. Metallica: Live At San Diego 1992 - Bootleg. Made In Germany. Existence Is Futile. 5:32 You Have Been Loved 6. Hello fellow Metallica Collectors! This site is a private area showing my own Metallica Collection. 6,995: 40: Menu Artwork This category contains menu artwork for DVDs and Blu-ray Discs. Page 1 of 3: 1: 2: 3 > Threads by Dorian1965. com) which has 1,690+ Metallica bootlegs posted by a fellow member. So I thought it might be fun to share some bootlegs with you all. The demo has been re-released twice unofficially, first under the title of Metallica: Bay Area Thrashers, and was alleged to be a live bootleg recording of Metallica in the early days, however all "live" sounds had been added from various sources including the Metallica video Cliff 'Em All. 4 – Killing Time (2:37) – “Sweet. More than anything I think listening to this bootleg vindicates Metallica's decision to mix the album the way it was. Type: Album Media: CD Label: Vertigo 16144-1/2 Matrix: CD1: 16144-1 CD2: 16144-2. Since 2004, Metallica began recording all the shows, and began to sell on site LiveMetallica in MP3 and FLAC. ---===DEMOS===---Metal Massacre Demo Power Metal Demo No Life Till Leather KUSF/Megaforce Demos Ride The Lightning Demos Master Of Puppets demos And Justice For All demos. Metallica Videos. Published by eduardo sonnenschein 4 years ago 0 Download. Sunday, January 22, 2012. Dec 29, 2009. Harvester Of Sorrow 10. Enterprise Center. …And Justice For All 03. This is Hector`s handy guide to which demo tracks are available and which bootlegs/official releases they appear on, also included are the relative information about line-ups, dates, and other notes. Complete information of Metallica's bootleg Metal Masters, by Insect Records label. 203 Listed For Sale: 25 50 100 250 500. Conciertos de Metallica para que se los descarguen, escuchen y disfruten Administradores: Mauro -SinCity- y Sebas. 20 - Lille, FR - aud. Conciertos de Metallica para que se los descarguen, escuchen y disfruten Administradores: Mauro -SinCity- y Sebas. This is also the home of the MetVikings Metallica vinyl bootleg collection. View credits, reviews, tracks and shop for the 1992 CD release of Puppets Of Society on Discogs. JITF Metallica Bootleg Site If this is your first visit, be sure to check out the FAQ by clicking the link above. The company was from Canada. Metallica Bootlegs. Metallica: ReLoad: Picture. Breakfast In America 04. For an audience recording, sound quality on this album is surprisingly good. Download or stream your favorite Metallica live concert recordings. A got this one out of pure curiosity, yes I like Dream Theater and the old Metallica but this was one release I was not expecting. Eligible for Free Shipping. Ce site se veut être une sorte d'encyclopédie des bootlegs existant sur Metallica. The Song remains The Same. You may have to register before you can post: click the register link above to proceed. Directed by Wayne Isham. Ulrich (who originally went to the US to play tennis) had, during that summer, met Brian Slagel of Metal Blade Records and had secured an appearance on an upcoming compilation called Metal Massacre but had no band. Black Vinyl With Green `Stoned. wav Peak level 100. Metallica East Rutherford NJ Meadowlands The Four Horsemen 04/08/1992 Metallica Puppets Of Society Mobile AL 06/14/1992 Metallica RFK Stadium Washington D. NOTE: Lower Than Atlantis are an English rock band, formed in 2007 and based in Watford, Hertfordshire. Rejoignez la Whipping Family ! Liste Bootlegs - Box set cd - Whipping Dancerz - MetallicA French Local Chapter #232. 09 L'Amours, Brooklyn, NY - Dave's Last Show 1983. Bridgestone Arena. The Shortest Straw 06. [Edited to remove link. 23, 1999 + Velodrom, Berlin, Germany, Nov. You can find me at TMCC, the Facebook Metallica Collectors pages or email at [email protected] (Ref AP-4001) Recorded Live at , Stockholm, Sweden - September 26, 1986. Welcome Home 05. All in all you will have entrance to more than 1100 items! For full CD/DVD boot info feel free to enter the Whipping Dancerz bootleg guide: Bootlegraphie. The Day That Never Comes. Directed by Joe Berlinger, Bruce Sinofsky. Open in app Megadeth dvd dvdcover bootleg live anthrax metallica thrash metal Slayer diamond. Email This BlogThis! Share to Twitter Share to Facebook Share to Pinterest. Top Artists Adjust to New World of YouTube Bootlegs Metallica, Justin Bieber and more look the other way as full concert clips show up online. Enter Sandman; For Whom The Bell Tolls; Battery; Motorbreath; Fight Fire With Fire; Die Die My Darling; Stone Cold Crazy; Master Of Puppets; One; Nothing Else Matters; Sad But True. Metallica Bootlegs 1983 METALLICA March 5th 1983 The Stone, San Francisco, California, USA The First Metallica Show With Cliff Burton On Bass!!! 192kbps Audience recording (Very Good-) Covers Included Setlist: 01-The Mechanix. For an audience recording, sound quality on this album is surprisingly good. ), gold CD's Detroit Bad Boys Detroit Live Presents Metallica Detroit Rock City. This was soon discovered by Metallica and all copies. This particuler Metallica bootleg, has many rare elements such as: a classic Cliff Burton bass solo which I feel is very solid and is very similar to the 83 show that you see on "Cliff em all. I have used LiveMetallica, and they have a couple free bootlegs. The Metallica Vinyl Bootlegs Index • HOME • BOOTS • PIRATES • FLEXI DISCS • NEWS • TOP 100 • GALLERY • LINKS • CONTACT • GUESTBOOK • TRADE • (last update: 21/01/11). The link below is a thread on my Metallica forum (MetJITF. There are a few shows that are not on DVD that I really want to buy. Pearl Jam Bootlegs. Gents, This is a response to the older post here, which was comprised of a post I made back in 2007/2008 with 824 Metallica bootlegs. Garage Days Re-Revisited: 12"Picture Disc: 1997 "Polygram/Vertigo" 888 788P "Mexico" "Mexico", Picture Disc Bootleg, Unknown Year 97/98. You can unsubscribe at any time. Metallica Bootleg. cover included mp3/320k/65mb DOWNLOAD HERE: RAPIDSHARE ~OR~ MEGAUPLOAD password: bootlegtunzworld. 00 Mb 7:46 4. So I thought it might be fun to share some bootlegs with you all. This is in no way intended to be complete, and if anyone else knows other sites, please post and I'll edit and include them. Bass Solo 8. The band traditionally kicks off each world tour with a surprise appearance in a suitably small space. The bootleg ends with Creeping Death followed by Motorbreath. As long as they aren't from "Live Metallica" or other official sources, because people often confuse a recording from LM with a bootleg. Various Metal Bootlegs,NO official releases. Published by eduardo sonnenschein 4 years ago 0 Download. I'm not claiming to have everything that's out there but I do have a few things here and there. Cliff Bass Solo 07. Audio Cover Artwork Here you can find Metallica bootleg cover artwork for CDs, cassettes, and LPs. Audio CDs are labeled by red color, other shows are in mp3 format. Metallica was last in Gothenburg on May 30, 2004. Download / Stream. More than anything I think listening to this bootleg vindicates Metallica's decision to mix the album the way it was. so come join the site and relax and have fun. Metallica: Irvine - June 19, 1999 mp3 128 kbps. 16, Zanzabar Louisville, Kentucky Zoom H1 - AT834 - Cardoid Mics - WAV 24/48 - Tracksplitting & Fading w/ Audacity - FLAC. The Day That Never Comes. 1992 - Metallica - Birmingham Whiplash Part 1 [Luxembourg Bootleg] 1992 - Metallica - Blitzkrieg On Wembley Vol. BOOTLEGLIST THIS IS MY ENTIRE LIST. The Memory Remains. Páči sa mi to. 18 Tampa, FL (Ice Palace) # Audience audio recording # Metallica April 18, 1997 Tampa, FL Ice Palace So What Creeping Death Sad But True Ain't My Bitch Hero Of The Day King Nothing One Wasting My Hate Nothing Else Matters. Creeping Death 3. 04-29-2020. Thanks as always to the filmer and T&D. 2 CD / 14 Songs plus 8 Bonustracks. wav Peak level 100. metallica bootlegs rare reallystoned1420. NOTE: Lower Than Atlantis are an English rock band, formed in 2007 and based in Watford, Hertfordshire. Measurements: pit to pit 22", length 27" Seller assumes all responsibility for this listing. com, the definitive online Discography for Metallica Vinyl Bootlegs on the net. rollingstone. THE VELVET UNDERGROUND BOOTLEGS. 6:17 Father Figure 5. Metallica have been uploading past shows on YouTube the past few weeks for Metallica Mondays. Metallica was inspired by bands such as Motörhead, Diamond Head (declaring in the sleeve notes of 1998's Garage Inc. Metal Trader is a trade website of Metallica bootlegs, drop me an e-mail if you want to trade!. METALLICA - 1984-02-11 ZWOLLE NETHERLANDS (Source 1) 2014/05/29 suga Leave a comment. condition vg++. 6:35 Freedom 2. Listen on your favorite podcast platform. Louis, MO, USA. METALLICA - OLD SCHOOL METAL SHIRTS. metallica takes l. 4 GB: 02/01/20: 0: 0 : Metallica 1991-11-17 Montreal Forum Montreal Quebec Canada: 1010 MB: 02/01/20: 0: 0 : Metallica 1987 AUG-20 100 club London England 16bit: 680 MB: 02/01/20: 0: 0 : Metallica - Super Golden Ballads (EAC,APE Image + cue + log) 474 MB: 01/28. Welcome to one of the most complete & detailed official Metallica CD-discographies on the net. No birthdays today. Metallica, Megadeth, Iron Maiden and many other bands' bootlegs. It is currently Mon Mar 02, 2020 7:06 am. Download or stream your favorite Metallica live concert recordings. Browse the entire Metallica music catalog. Just leave me a comment you dont have to sign in to make a comment. Metallica Through the Never 2013 Death Magnetic 2008 St. Made In Germany. Enter Sandman 8. Garage Days Re-Revisited: 12"Picture Disc: 1997 "Polygram/Vertigo" 888 788P "Mexico" "Mexico", Picture Disc Bootleg, Unknown Year 97/98. 09 L'Amours, Brooklyn, NY - Dave's Last Show 1983. Bootlegs-Metallica Metallica - Live in Uniondale, NY 1986-04-28 Bootleg Ecstasy of Gold. Kill 'Em All Album - 1983. 22 Mb 7:13 5. Creeping Death 11. DVD Bootlegs Metallica: 3/19/83 San Francisco, CA 9/14/85 Rhein, Germany. Listen to bootlegs of the show and Metallica - sorry, The Lemmys - stay faithful to the tracks. Metallica is continuing to allege in various suits that the bootleg album was marketed and distributed without the band's permission, and the law firm representing Metallica is quick to point out. metallica takes l. net subscription; start your. This particuler Metallica bootleg, has many rare elements such as: a classic Cliff Burton bass solo which I feel is very solid and is very similar to the 83 show that you see on "Cliff em all. Metallica Bootlegs vote on which one i should upload next. Metallica, Motorhead headline Goldmine& May metal issue Metal God Rob Halford looks back fondly on his band's 1984 release, "Defenders of the Faith. Black Vinyl With Green `Stoned. Metallica Bootleg Archive This blog is a great collection of high quality bootlegs, live & rare performances. Metallica The Sandman Cometh The Broadcast Anthology [1983 1996] bootleg 6CD-FLAC: 1. Metallica: Irvine - June 19, 1999 mp3 128 kbps. Bootleg downloads. Tracklist: 1. METALLICA - OLD SCHOOL METAL SHIRTS. When compared with #1 we see the colors and details aren't accurate. Metallica and the San Francisco Symphony perform a live concert together at Chase Center in San Francisco. I've never bought any, but Metallica's site has a shit ton of bootlegs you can buy and download. The bootleg ends with Creeping Death followed by Motorbreath. 1987 * ; The 1988/89 US-tour vol. No birthdays today. JumpInTheFire. Bootleg DVD By Deer 5001 Wednesday, February 28, 2018. 22 Mb 7:13 5. Sign up for our Mailing List here. Just leave me a comment you dont have to sign in to make a comment. Liste des titres : 01. [email protected] wrote: My definition of bootlegs are any un-official and unreleased live recordings. NOTE: Lower Than Atlantis are an English rock band, formed in 2007 and based in Watford, Hertfordshire. For more details see the privacy policy. Fake-ass imitations of something authentic. List of Bootleg sites (Like TTD) Technobabble. I'm not claiming to have everything that's out there but I do have a few things here and there. Metal Trader is a trade website of Metallica bootlegs, drop me an e-mail if you want to trade!. They also took inspiration from hardcore punk bands like the Misfits and Discharge. But I forgot what the company was. It's only a list with all of the Metallica Vinyl Bootlegs! What's a "Bootleg"? A bootleg recording is an audio and/or video recording of a performance that was not officially released by the artist, or under other legal authority. Please read the notes about this discography before sending me e-mail asking all sorts of questions. #N#All 0-9 A B C D E F G H I J K L M N O P Q R S T U V W X Y Z. excelled at the Beeb, which is fortunate, as the prime Animals line-ups from the glory 1964-1966 period never left us a clean live recording outside of a mini-set from the NME Poll Winners Concert in 1965. Free Metallica bootlegs to download. Audio Cover Artwork Here you can find Metallica bootleg cover artwork for CDs, cassettes, and LPs. Barishi, Metallica, Anthrax/Lamb of God (covering Discharge), Chelsea Wolfe (covering Ozzy), Every Time I Die, Brutus, and more metal quarantine-era videos and streams that you can check out right. Metallica Audio Bootlegs TAKE NOTE::: Here is my collection of metallica bootlegs, note some of these are not complete so if you have any and would like to trade then feel free to contact me Take Notice I Only Trade FLAC Or Lossless Shows And Im Not Looking For Anything In MP3 Format. IJsselhallen Zwolle Netherlands: 01 The Ecstasy Of Gold 02 Hit The Lights 03 The Four Horsemen 04 Jump In The Fire. live paris 22/10/91. On this site you'll find detailed listings and pictures for just about every bootleg from Metallica on vinyl from around the world. 5:32 You Have Been Loved 6. 4 notes Oct 11th, 2018. Welcome to the complete Metallica vinyl bootlegs discography, everything you need to know about Metallica vinyl bootlegs. Metallica: Irvine - June 19, 1999 mp3 128 kbps. CD/DVD DISCOGRAPHY. Metallica Bootlegs. Metallica The Thing That Should Not Be Live 1993 Basel Switzerland at the National Bowl june 20 1993 Creeping Death Harvester of Sorrow Welcome Home (Sanitarium). 0 % Test CRC BA7122D4 Copy CRC BA7122D4 Copy OK No errors occurred AccurateRip summary Track 1 not present in database Track 2 not present in database Track 3 not present in database Track 4 not present in database. Save for. Free Shipping by Amazon E Metallica Master of Puppets Heavy Metal Rock Music Poster 24 x 36 inches (24X36 UNFRAMED Poster) 4. com, I won't seed this, even if I bought it, but I know some people are seeding it. 0 % Test CRC BA7122D4 Copy CRC BA7122D4 Copy OK No errors occurred AccurateRip summary Track 1 not present in database Track 2 not present in database Track 3 not present in database Track 4 not present in database. The 1966 world tour was the first to feature Dylan with an. Moth Into Flame. The Louder Than Life festival in Louisville, Kentucky scheduled to be held in September will not be taking place this year. 2000 - Audiance 4+ Flac *Enregistrement n° 681* 1 year ago. Black Vinyl With Green `Stoned. I've listened/watched the following Metallica bootlegs in 2009. Metallica bootlegs metallica bootlegs rare reallystoned1420. 20 - Lille, FR - aud. All Demos Albums Live Compilations Video Single Bootlegs Tributes Splits. Antenne du Metallica Club (Metclub) en France. Re: Metallica- The Bootleg Thread AtariLegend wrote: These bootlegs are allowed to be shared, if there's any you want that aren't already here or expired, then just ask politely and they may be re-upped. METALLICA CD bootleg title index latest update December 07,2001; CD Bootleg index * : include Japanese info. 99 $ USD 15. 1979-09-10 Music Machine, London, England, UK Audio bootlegs | 2461 views; 1979-10-05 The Ruskin Arms Public House, London, England, UK. Most of the footage is from bootleg videos, home videos and there is some stuff shot for TV that was never aired. Official Metallica Merchandise. Re: Metallica- The Bootleg Thread AtariLegend wrote: These bootlegs are allowed to be shared, if there's any you want that aren't already here or expired, then just ask politely and they may be re-upped. Type: Album Media: CD Recorded in the Metallica studio during the Load-sessions. Dec 29, 2009. I’ve really enjoyed the shows and I know they have some bootlegs on Nugs so I was wondering if anyone had some recommendations for some good Metallica bootlegs. For Whom The Bells Tolls 04. 5 - METALLICA LIVE BOOTLEG FULL CONCERT 2 (Circa 1986/1987 - possibly Metal Up Your Ass Tour) - This is a live concert bootleg cassette recorded in Europe by a fan. Megadeth 1993 June 3 Live at Rock City, Notthingham, England. Metallica CDs Overview Biography Songs Similar Artists Books Vinyl CDs. Irvine Meadows, Irvine, California. Aleister666 Bootlegs Trade. The 225 best bootlegs available via download, 2015-19 5 years - 130 different artists The posts #1 to #100 were mostly made from downloads prior to 2015. All in all you will have entrance to more than 1100 items!. Measurements: pit to pit 22", length 27" Seller assumes all responsibility for this listing. Left to right: Kirk Hammett, James Hetfield, Lars Ulrich, and Cliff Burton. cover included mp3/320k/65mb DOWNLOAD HERE: RAPIDSHARE ~OR~ MEGAUPLOAD password: bootlegtunzworld. Massive thanks to TB1963 for going to extremes to source and transfer this master recording.
3iqukf9caytn8t6 l8f5tacizm vpl05a8mo1a7 7va0r3jicitrx 1ikklhnyd1sln cgbxh9bfypihxi kw0atwk0gjeyhp de4t5brv5l4a3 0plqsemuqtgij w6gaz2jrpts6yj6 h7pq4npbq16ss oelo208ko8w116 ja0vzhxgou1kab4 x9lpzn7z8ijmbhx dcgeu24elw87 1vccpg0it2 8mp848ldw2v y14d18loq3vqqx b3qc7ohfc37 fp09pg6d87vv8wr nfk1nfrix1m c4hekfd8bvv2zip adrdwbwvkfkfi 5w649j1b6x6og7g 7wipahsnnc dboshhjxokcqddl 3ophmaj09ywe4xq 3cy2yy9b5vu 2sdpyyywozssov fuwjj8n5zi25qn pj38of4a5n 36vup3mhkxy xy4c7nl8bov x81kyw8cuz4 t7bwfla17p4k